aoloffline
版主

[2016] [欧美] [动画] [WEB-1080P] [BT下载]死宅之地 Nerdland.2016.1080p.WEB-DL.DD5.1.H264-FGT 2.94GB

-->

◎译  名 死宅之地

◎片  名 Nerdland

◎年  代 2016

◎国  家 美国

◎类  别 动画

◎语  言 英语

◎上映日期 2016

◎IMDb评分  6.5/10 from 51 users

◎IMDb链接  http://www.imdb.com/title/tt5574372/

◎BT之家整理 http://www.btbtt.co

◎片  长 85分钟

◎导  演 Chris Prynoski

◎主  演 保罗·路德 Paul Rudd

      帕顿·奥斯瓦尔特 Patton Oswalt

      瑞琪·琳德赫姆 Riki Lindhome

      凯特 米库契 Kate Micucci


◎简  介


  讲述基友二人组埃略特和约翰企图一夜成名乃至败名的宅男逆袭记


Video
ID                                       : 1
Format                                   : AVC
Format/Info                              : Advanced Video Codec
Format profile                           : High@L4
Format settings, CABAC                   : Yes
Format settings, ReFrames                : 5 frames
Codec ID                                 : V_MPEG4/ISO/AVC
Duration                                 : 1h 22mn
Bit rate                                 : 4 599 Kbps
Width                                    : 1 920 pixels
Height                                   : 808 pixels
Display aspect ratio                     : 2.40:1
Frame rate mode                          : Constant
Frame rate                               : 23.976 fps
Color space                              : YUV
Chroma subsampling                       : 4:2:0
Bit depth                                : 8 bits
Scan type                                : Progressive
Bits/(Pixel*Frame)                       : 0.124
Stream size                              : 2.66 GiB (90%)
Title                                    : Nerdland.2016.1080p.WEB-DL.DD5.1.H264-FGT
Language                                 : English
Default                                  : Yes
Forced                                   : No
Color range                              : Limited
Color primaries                          : BT.709
Transfer characteristics                 : BT.709
Matrix coefficients                      : BT.709

Audio
ID                                       : 2
Format                                   : AC-3
Format/Info                              : Audio Coding 3
Mode extension                           : CM (complete main)
Format settings, Endianness              : Big
Codec ID                                 : A_AC3
Duration                                 : 1h 22mn
Bit rate mode                            : Constant
Bit rate                                 : 384 Kbps
Channel(s)                               : 6 channels
Channel positions                        : Front: L C R, Side: L R, LFE
Sampling rate                            : 48.0 KHz
Frame rate                               : 31.250 fps (1536 spf)
Compression mode                         : Lossy
Stream size                              : 228 MiB (8%)
Title                                    : Nerdland.2016.1080p.WEB-DL.DD5.1.H264-FGT
Language                                 : English
Default                                  : Yes
Forced                                   : No

Text
ID                                       : 3
Format                                   : UTF-8
Codec ID                                 : S_TEXT/UTF8
Codec ID/Info                            : UTF-8 Plain Text
Language                                 : English
Default                                  : Yes
Forced                                   : No

Menu
00:00:00.000                             : en:1
00:05:13.772                             : en:2
00:09:36.409                             : en:3
00:13:55.835                             : en:4
00:20:18.050                             : en:5
00:25:39.913                             : en:6
00:29:31.811                             : en:7
00:35:31.962                             : en:8
00:42:23.873                             : en:9
00:46:44.216                             : en:10
00:48:56.056                             : en:11
00:56:02.607                             : en:12
00:59:58.759                             : en:13
01:04:02.210                             : en:14
01:10:27.220                             : en:15
01:14:50.399                             : en:16






1 个附件 售价 大小 下载 时间

Nerdland.2016.1080p.WEB-DL.DD5.1.H264-FGT[btbtt.co].torrent 0 金币 59.50K 906 次 8月前

#1楼
发帖时间:2017-01-06 17:21:30   |   回复数:5
Boom邦
小有名气
感谢楼主分享 非常有意思的动画电影 强烈推介  
8月前 #2楼
blue23
超凡入圣№
感谢楼主分享
8月前 #3楼
911degrees
一代宗师
非常感谢,谢谢分享
8月前 #4楼
liyouchai
超凡入圣№
谢谢楼主分享资源
8月前 #5楼
albb2188
一派掌门
感谢楼主提供分享影片资源!
8月前 #6楼
游客组