aoloffline
版主

[2016] [欧美] [喜剧] [WEB-1080P] [BT下载]你我之间 Between.Us.2016.1080p.WEB-DL.DD5.1.H264-FGT 3.63GB

-->

◎译  名 你我之间

◎片  名 Between Us

◎年  代 2016

◎国  家 美国

◎类  别 剧情/喜剧/爱情

◎语  言 英语

◎IMDb评分  7.3/10 from 51 users

◎IMDb链接  http://www.imdb.com/title/tt3886604/

◎BT之家整理 http://www.btbtt.co

◎导  演 Rafael Palacio Illingworth

◎主  演 安娜丽·提普顿 Analeigh Tipton

      奥莉薇·瑟尔比 Olivia Thirlby

      亚当·戈德堡 Adam Goldberg

      本·费德曼 Ben Feldman

      莱斯莉·安·华伦 Lesley Ann Warren

      约翰·罗斯·鲍伊 John Ross Bowie

      彼得·博格丹诺维奇 Peter Bogdanovich

      谢瑞琳·威尔逊 Cherilyn Wilson

      斯科特·黑兹 Scott Haze


◎简  介


  Thirlby and Feldman play a couple confronted by the fear that settling down and getting married means their carefree days as city-dwelling young adults coming to an abrupt and depressing end. Both are tempted by the allure of another life before ultimately realizing why they fell in love in the first place.


Video
ID                                       : 1
Format                                   : AVC
Format/Info                              : Advanced Video Codec
Format profile                           : High@L4
Format settings, CABAC                   : Yes
Format settings, ReFrames                : 4 frames
Codec ID                                 : V_MPEG4/ISO/AVC
Duration                                 : 1h 34mn
Bit rate                                 : 5 011 Kbps
Width                                    : 1 792 pixels
Height                                   : 1 080 pixels
Display aspect ratio                     : 5:3
Frame rate mode                          : Constant
Frame rate                               : 23.976 (24000/1001) fps
Color space                              : YUV
Chroma subsampling                       : 4:2:0
Bit depth                                : 8 bits
Scan type                                : Progressive
Bits/(Pixel*Frame)                       : 0.108
Stream size                              : 3.31 GiB (91%)
Title                                    : Between.Us.2016.1080p.WEB-DL.DD5.1.H264-FGT
Language                                 : English
Default                                  : Yes
Forced                                   : No
Color range                              : Limited
Color primaries                          : BT.709
Transfer characteristics                 : BT.709
Matrix coefficients                      : BT.709

Audio
ID                                       : 2
Format                                   : AC-3
Format/Info                              : Audio Coding 3
Mode extension                           : CM (complete main)
Format settings, Endianness              : Big
Codec ID                                 : A_AC3
Duration                                 : 1h 34mn
Bit rate mode                            : Constant
Bit rate                                 : 384 Kbps
Channel(s)                               : 6 channels
Channel positions                        : Front: L C R, Side: L R, LFE
Sampling rate                            : 48.0 KHz
Frame rate                               : 31.250 fps (1536 spf)
Compression mode                         : Lossy
Stream size                              : 260 MiB (7%)
Title                                    : Between.Us.2016.1080p.WEB-DL.DD5.1.H264-FGT
Language                                 : English
Default                                  : Yes
Forced                                   : No

Text
ID                                       : 3
Format                                   : UTF-8
Codec ID                                 : S_TEXT/UTF8
Codec ID/Info                            : UTF-8 Plain Text
Language                                 : English
Default                                  : Yes
Forced                                   : No

Menu
00:00:00.000                             : en:1
00:10:34.000                             : en:2
00:22:44.000                             : en:3
00:32:58.000                             : en:4
00:51:01.000                             : en:5
01:00:42.000                             : en:6
01:13:04.000                             : en:7
01:28:29.000                             : en:8




1 个附件 售价 大小 下载 时间

Between.Us.2016.1080p.WEB-DL.DD5.1.H264-FGT[btbtt.co].torrent 0 金币 73.29K 987 次 1月前

#1楼
发帖时间:2017-01-06 17:17:32   |   回复数:3
blue23
超凡入圣№
感谢楼主分享
1月前 #2楼
911degrees
一代宗师
非常感谢,谢谢分享
1月前 #3楼
liyouchai
超凡入圣№
谢谢楼主分享资源
1月前 #4楼
游客组