aoloffline
版主

[2016] [欧美] [惊悚] [WEB-1080P] [BT下载]元素/催眠专家 Element.2016.1080p.WEB-DL.DD5.1.H264-FGT 2.98GB

-->

◎译  名 元素/催眠专家

◎片  名 Element

◎年  代 2016

◎国  家 美国

◎类  别 惊悚

◎语  言 英语

◎上映日期 2016-04-01

◎IMDb评分  4.5/10 from 98 users

◎IMDb链接  http://www.imdb.com/title/tt3645178/

◎豆瓣评分 4.0/10 from 10 users

◎豆瓣链接 https://movie.douban.com/subject/26821528/

◎BT之家整理 http://www.btbtt.co

◎片  长 88分钟

◎导  演 强·基耶斯 Jon Keeyes

◎主  演 迈克尔·艾恩塞德 Michael Ironside

      史蒂芬·迈克尔·克扎达 Steven Michael Quezada

      Paul Stuart

      Mollie Milligan

      Angeline-Rose Troy

      维琳达·戈弗雷 Velinda Godfrey

      Susana Gibb

      Nikki Donley

      Leland Prater


◎简  介


  一名金融顾问难以从妻子死亡的阴影中走出来,他打算通过催眠来想起更多和妻子的回忆。


Video
ID                                       : 1
Format                                   : AVC
Format/Info                              : Advanced Video Codec
Format profile                           : High@L4
Format settings, CABAC                   : Yes
Format settings, ReFrames                : 5 frames
Codec ID                                 : V_MPEG4/ISO/AVC
Duration                                 : 1h 28mn
Bit rate                                 : 4 325 Kbps
Width                                    : 1 916 pixels
Height                                   : 796 pixels
Display aspect ratio                     : 2.40:1
Frame rate mode                          : Constant
Frame rate                               : 23.976 fps
Color space                              : YUV
Chroma subsampling                       : 4:2:0
Bit depth                                : 8 bits
Scan type                                : Progressive
Bits/(Pixel*Frame)                       : 0.118
Stream size                              : 2.68 GiB (90%)
Title                                    : Element.2016.1080p.WEB-DL.DD5.1.H264-FGT
Language                                 : English
Default                                  : Yes
Forced                                   : No
Color range                              : Limited
Color primaries                          : BT.709
Transfer characteristics                 : BT.709
Matrix coefficients                      : BT.709

Audio
ID                                       : 2
Format                                   : AC-3
Format/Info                              : Audio Coding 3
Mode extension                           : CM (complete main)
Format settings, Endianness              : Big
Codec ID                                 : A_AC3
Duration                                 : 1h 28mn
Bit rate mode                            : Constant
Bit rate                                 : 384 Kbps
Channel(s)                               : 6 channels
Channel positions                        : Front: L C R, Side: L R, LFE
Sampling rate                            : 48.0 KHz
Frame rate                               : 31.250 fps (1536 spf)
Compression mode                         : Lossy
Stream size                              : 244 MiB (8%)
Title                                    : Element.2016.1080p.WEB-DL.DD5.1.H264-FGT
Language                                 : English
Default                                  : Yes
Forced                                   : No

Text
ID                                       : 3
Format                                   : UTF-8
Codec ID                                 : S_TEXT/UTF8
Codec ID/Info                            : UTF-8 Plain Text
Language                                 : English
Default                                  : Yes
Forced                                   : No

Menu
00:00:00.000                             : en:Chapter 1
00:09:10.000                             : en:Chapter 2
00:18:34.000                             : en:Chapter 3
00:27:43.000                             : en:Chapter 4
00:34:52.000                             : en:Chapter 5
00:43:12.000                             : en:Chapter 6
00:49:27.000                             : en:Chapter 7
00:58:15.000                             : en:Chapter 8
01:05:03.000                             : en:Chapter 9
01:11:08.000                             : en:Chapter 10
01:18:18.000                             : en:Chapter 11
01:25:06.000                             : en:Chapter 12





1 个附件 售价 大小 下载 时间

Element.2016.1080p.WEB-DL.DD5.1.H264-FGT[btbtt.co].torrent 0 金币 60.26K 859 次 9月前

#1楼
发帖时间:2017-01-06 15:47:01   |   回复数:5
liyouchai
超凡入圣№
谢谢楼主分享资源
9月前 #2楼
911degrees
一代宗师
非常感谢,谢谢分享
9月前 #3楼
blue23
隐世仙人♂
感谢楼主分享
9月前 #4楼
wo99106
武林高手
感谢楼主分享
9月前 #5楼
albb2188
一派掌门
感谢楼主提供分享影片资源!
9月前 #6楼
游客组