aoloffline
版主

[2016] [欧美] [纪录] [WEB-1080P] [BT下载]银行比特币 Banking.on.Bitcoin.2016.DOCU.1080p.WEB-DL.DD5.1.H264-FGT 3.24GB

-->

◎译  名 银行比特币

◎片  名 Banking on Bitcoin

◎年  代 2016

◎国  家 美国

◎类  别 记录

◎语  言 英语

◎IMDb评分  N/A

◎IMDb链接  http://www.imdb.com/title/tt5033790/

◎BT之家整理 http://www.btbtt.co

◎片  长 90分钟

◎导  演 Christopher Cannucciari

◎主  演 Wences Casares

      Nathanial Popper

      亚历克斯·温特 Alex Winter


◎简  介


  Not since the invention of the Internet has there been such a disruptive technology as Bitcoin. Bitcoin's early pioneers sought to blur the lines of sovereignty andthe financial status quo. After years of underground development Bitcoin grabbed the attention of a curious public| and the ire of the regulators the technology hadsubverted. After landmark arrests of prominent cyber criminals Bitcoin faces its most severe adversary yet| the very banks it was built to destroy.


Video
ID                                       : 1
Format                                   : AVC
Format/Info                              : Advanced Video Codec
Format profile                           : High@L4
Format settings, CABAC                   : Yes
Format settings, ReFrames                : 4 frames
Codec ID                                 : V_MPEG4/ISO/AVC
Duration                                 : 1h 23mn
Bit rate                                 : 5 051 Kbps
Width                                    : 1 904 pixels
Height                                   : 1 064 pixels
Display aspect ratio                     : 16:9
Frame rate mode                          : Constant
Frame rate                               : 23.976 (24000/1001) fps
Color space                              : YUV
Chroma subsampling                       : 4:2:0
Bit depth                                : 8 bits
Scan type                                : Progressive
Bits/(Pixel*Frame)                       : 0.104
Stream size                              : 2.95 GiB (91%)
Title                                    : Banking.on.Bitcoin.2016.DOCU.1080p.WEB-DL.DD5.1.H264-FGT
Language                                 : English
Default                                  : Yes
Forced                                   : No
Color range                              : Limited
Color primaries                          : BT.709
Transfer characteristics                 : BT.709
Matrix coefficients                      : BT.709

Audio
ID                                       : 2
Format                                   : AC-3
Format/Info                              : Audio Coding 3
Mode extension                           : CM (complete main)
Format settings, Endianness              : Big
Codec ID                                 : A_AC3
Duration                                 : 1h 23mn
Bit rate mode                            : Constant
Bit rate                                 : 384 Kbps
Channel(s)                               : 6 channels
Channel positions                        : Front: L C R, Side: L R, LFE
Sampling rate                            : 48.0 KHz
Frame rate                               : 31.250 fps (1536 spf)
Compression mode                         : Lossy
Stream size                              : 230 MiB (7%)
Title                                    : Banking.on.Bitcoin.2016.DOCU.1080p.WEB-DL.DD5.1.H264-FGT
Language                                 : English
Default                                  : Yes
Forced                                   : No

Text
ID                                       : 3
Format                                   : UTF-8
Codec ID                                 : S_TEXT/UTF8
Codec ID/Info                            : UTF-8 Plain Text
Language                                 : English
Default                                  : Yes
Forced                                   : No

Menu
00:00:00.000                             : en:Chapter 1
00:10:15.615                             : en:Chapter 2
00:19:42.181                             : en:Chapter 3
00:33:04.983                             : en:Chapter 4
00:40:38.436                             : en:Chapter 5
00:46:21.779                             : en:Chapter 6
00:53:18.195                             : en:Chapter 7
01:02:05.722                             : en:Chapter 8
01:09:45.181                             : en:Chapter 9
01:20:46.842                             : en:Chapter 10




1 个附件 售价 大小 下载 时间

Banking.on.Bitcoin.2016.DOCU.1080p.WEB-DL.DD5.1.H264-FGT[btbtt.co].torrent 0 金币 65.48K 1459 次 13天前

#1楼
发帖时间:2017-01-06 15:42:28   |   回复数:4
liyouchai
一代宗师
谢谢楼主分享资源
13天前 #2楼
911degrees
一代宗师
非常感谢,谢谢分享
13天前 #3楼
blue23
超凡入圣№
感谢楼主分享
13天前 #4楼
wo99106
武林高手
感谢楼主分享
13天前 #5楼
游客组