aoloffline
版主

[2016] [欧美] [恐怖] [WEB-1080P] [BT下载]甘草叉 Pitchfork.2016.1080p.WEB-DL.DD5.1.H264-FGT 3.27GB

-->

◎译  名 甘草叉

◎片  名 Pitchfork

◎年  代 2016

◎国  家 美国

◎类  别 恐怖

◎语  言 英语

◎IMDb评分  7.8/10 from 17 users

◎IMDb链接  http://www.imdb.com/title/tt4985848/

◎BT之家整理 http://www.btbtt.co

◎导  演 Glenn Douglas Packard

◎主  演 Daniel Wilkinson

      Brian Raetz

      Lindsey Nicole

      Ryan Moore

      Celina Beach

      Nicole Dambro

      Keith Webb


◎简  介


  A group of friends return home with a friend to help him share a secret only to learn that sometimes older secrets are even more deadly.



Video
ID                                       : 1
Format                                   : AVC
Format/Info                              : Advanced Video Codec
Format profile                           : High@L4
Format settings, CABAC                   : Yes
Format settings, ReFrames                : 5 frames
Codec ID                                 : V_MPEG4/ISO/AVC
Duration                                 : 1h 34mn
Bit rate                                 : 4 462 Kbps
Width                                    : 1 920 pixels
Height                                   : 808 pixels
Display aspect ratio                     : 2.40:1
Frame rate mode                          : Constant
Frame rate                               : 23.976 fps
Color space                              : YUV
Chroma subsampling                       : 4:2:0
Bit depth                                : 8 bits
Scan type                                : Progressive
Bits/(Pixel*Frame)                       : 0.120
Stream size                              : 2.95 GiB (90%)
Title                                    : Pitchfork.2016.1080p.WEB-DL.DD5.1.H264-FGT
Language                                 : English
Default                                  : Yes
Forced                                   : No
Color range                              : Limited
Color primaries                          : BT.709
Transfer characteristics                 : BT.709
Matrix coefficients                      : BT.709

Audio
ID                                       : 2
Format                                   : AC-3
Format/Info                              : Audio Coding 3
Mode extension                           : CM (complete main)
Format settings, Endianness              : Big
Codec ID                                 : A_AC3
Duration                                 : 1h 34mn
Bit rate mode                            : Constant
Bit rate                                 : 384 Kbps
Channel(s)                               : 6 channels
Channel positions                        : Front: L C R, Side: L R, LFE
Sampling rate                            : 48.0 KHz
Frame rate                               : 31.250 fps (1536 spf)
Compression mode                         : Lossy
Stream size                              : 260 MiB (8%)
Title                                    : Pitchfork.2016.1080p.WEB-DL.DD5.1.H264-FGT
Language                                 : English
Default                                  : Yes
Forced                                   : No

Text
ID                                       : 3
Format                                   : UTF-8
Codec ID                                 : S_TEXT/UTF8
Codec ID/Info                            : UTF-8 Plain Text
Language                                 : English
Default                                  : Yes
Forced                                   : No

Menu
00:00:00.000                             : en:1
00:10:30.000                             : en:2
00:22:15.000                             : en:3
00:32:00.000                             : en:4
00:41:05.000                             : en:5
00:51:45.000                             : en:6
00:59:32.000                             : en:7
01:10:36.000                             : en:8
01:17:15.000                             : en:9
01:31:47.000                             : en:10




1 个附件 售价 大小 下载 时间

Pitchfork.2016.1080p.WEB-DL.DD5.1.H264-FGT[btbtt.co].torrent 0 金币 65.99K 2499 次 6月前

#1楼
发帖时间:2017-01-06 15:34:56   |   回复数:4
liyouchai
超凡入圣№
谢谢楼主分享资源
6月前 #2楼
911degrees
一代宗师
非常感谢,谢谢分享
6月前 #3楼
blue23
超凡入圣№
感谢楼主分享
6月前 #4楼
albb2188
一派掌门
感谢楼主提供分享影片资源!
6月前 #5楼
游客组