aoloffline
版主

[2017] [欧美] [恐怖] [WEB-1080P] [BT下载]陷阱 The.Snare.2017.1080p.WEB-DL.DD5.1.H264-FGT 3.19GB

-->

◎译  名 陷阱

◎片  名 The Snare

◎年  代 2017

◎国  家 英国

◎类  别 恐怖

◎语  言 英语

◎上映日期 2017-01-06(美国)

◎IMDb评分  7.4/10 from 10 users

◎IMDb链接  http://www.imdb.com/title/tt2935390/

◎BT之家整理 http://www.btbtt.co

◎片  长 90分钟

◎导  演 C.A. Cooper

◎主  演 Eaoifa Forward

      Dan Paton

      Rachel Warren

      Renate Morley

      Roman Kemp

      Sameera Steward

      Lily-Mae Hebbes

      Tia Shenton

      Nathan Brine

      Fin Banks

      Arthur Wraight

      Abbie Short

      Mike Powell

      Bruno Wraight


◎简  介


  三个好友去海边度假,却被一股恶毒的超自然力量囚禁在度假公寓的顶层,他们究竟能否逃出升天?



Video
ID                                       : 1
Format                                   : AVC
Format/Info                              : Advanced Video Codec
Format profile                           : High@L4
Format settings, CABAC                   : Yes
Format settings, ReFrames                : 5 frames
Codec ID                                 : V_MPEG4/ISO/AVC
Duration                                 : 1h 32mn
Bit rate                                 : 4 449 Kbps
Width                                    : 1 920 pixels
Height                                   : 808 pixels
Display aspect ratio                     : 2.40:1
Frame rate mode                          : Constant
Frame rate                               : 25.000 fps
Color space                              : YUV
Chroma subsampling                       : 4:2:0
Bit depth                                : 8 bits
Scan type                                : Progressive
Bits/(Pixel*Frame)                       : 0.115
Stream size                              : 2.87 GiB (90%)
Title                                    : The.Snare.2017.1080p.WEB-DL.DD5.1.H264-FGT
Language                                 : English
Default                                  : Yes
Forced                                   : No
Color range                              : Limited
Color primaries                          : BT.709
Transfer characteristics                 : BT.709
Matrix coefficients                      : BT.709

Audio
ID                                       : 2
Format                                   : AC-3
Format/Info                              : Audio Coding 3
Mode extension                           : CM (complete main)
Format settings, Endianness              : Big
Codec ID                                 : A_AC3
Duration                                 : 1h 32mn
Bit rate mode                            : Constant
Bit rate                                 : 384 Kbps
Channel(s)                               : 6 channels
Channel positions                        : Front: L C R, Side: L R, LFE
Sampling rate                            : 48.0 KHz
Frame rate                               : 31.250 fps (1536 spf)
Compression mode                         : Lossy
Stream size                              : 254 MiB (8%)
Title                                    : The.Snare.2017.1080p.WEB-DL.DD5.1.H264-FGT
Language                                 : English
Default                                  : Yes
Forced                                   : No

Text
ID                                       : 3
Format                                   : UTF-8
Codec ID                                 : S_TEXT/UTF8
Codec ID/Info                            : UTF-8 Plain Text
Language                                 : English
Default                                  : Yes
Forced                                   : No

Menu
00:00:00.000                             : en:1
00:10:38.000                             : en:2
00:23:01.000                             : en:3
00:33:52.000                             : en:4
00:46:33.000                             : en:5
00:55:58.000                             : en:6
01:05:51.000                             : en:7
01:19:43.000                             : en:8
01:32:10.000                             : en:9





1 个附件 售价 大小 下载 时间

The.Snare.2017.1080p.WEB-DL.DD5.1.H264-FGT[btbtt.co].torrent 0 金币 64.34K 2831 次 9月前

#1楼
发帖时间:2017-01-06 15:30:53   |   回复数:4
liyouchai
超凡入圣№
谢谢楼主分享资源
9月前 #2楼
911degrees
一代宗师
非常感谢,谢谢分享
9月前 #3楼
blue23
隐世仙人♂
感谢楼主分享
9月前 #4楼
albb2188
一派掌门
感谢楼主提供分享影片资源!
9月前 #5楼
游客组