HELLO小虾
版主

[2016] [欧美] [喜剧] [BD-720P] [BT下载]邻家大贱谍 Keeping.Up.with.the.Joneses.2016.720p.BluRay.x264.DTS-HDC 5.97GB

-->

◎译  名 邻家大贱谍/间谍大邻演(台)/两公婆决斗特务王(港)/向邻居看齐/与邻居同行

◎片  名 Keeping Up with the Joneses

◎年  代 2016

◎国  家 美国

◎类  别 剧情/喜剧/动作

◎语  言 英语

◎上映日期 2016-10-21(美国)/2016-11-08(中国大陆)

◎IMDb评分  5.8/10 from 7,609 users

◎IMDb链接  http://www.imdb.com/title/tt2387499/

◎豆瓣评分 6.1/10 from 4,915 users

◎豆瓣链接 https://movie.douban.com/subject/25847558/

◎BT之家整理 http://www.btbtt.co  

◎片  长 105分钟

◎导  演 格雷格·莫托拉 Greg Mottola

◎主  演 盖尔·加朵 Gal Gadot

      艾拉·菲舍尔 Isla Fisher

      扎克·加利凡纳基斯 Zach Galifianakis

      乔恩·哈姆 Jon Hamm

      玛莉贝丝·梦露 Maribeth Monroe

      因德尔·库马尔 Inder Kumar

      马克·格拉佩 Marc Grapey

      赵明 Ming Zhao

      达林·库珀 Darin Cooper

      乔娜·肖 Jona Xiao

      卡琳娜·博纳菲尔 Karina Bonnefil


◎简  介


  杰夫(扎克·加利凡纳基斯 Zach Galifianakis 饰)与凯伦(艾拉·菲舍尔 Isla Fisher 饰)是一对住在城郊的夫妇,而他们发现新搬来的邻居并不简单。这对新搬来的夫妇蒂姆(乔恩·哈姆 Jon Hamm 饰)与娜塔莉(盖尔· 加朵 Gal Gadot 饰)过得可谓是光彩夺目,精致无比。而当他们发现琼斯夫妇实际上是秘密特工后,事情就变得更加复杂了。


Video
ID                                       : 1
Format                                   : AVC
Format/Info                              : Advanced Video Codec
Format profile                           : High@L4.1
Format settings, CABAC                   : Yes
Format settings, ReFrames                : 12 frames
Codec ID                                 : V_MPEG4/ISO/AVC
Duration                                 : 1h 45mn
Bit rate                                 : 6 600 Kbps
Width                                    : 1 280 pixels
Height                                   : 534 pixels
Display aspect ratio                     : 2.40:1
Frame rate mode                          : Constant
Frame rate                               : 23.976 (24000/1001) fps
Color space                              : YUV
Chroma subsampling                       : 4:2:0
Bit depth                                : 8 bits
Scan type                                : Progressive
Bits/(Pixel*Frame)                       : 0.403
Stream size                              : 4.74 GiB (79%)
Writing library                          : x264 core 148 r2744kMod b97ae06
Encoding settings                        : cabac=1 / ref=12 / deblock=1:-3:-3 / analyse=0x3:0x133 / me=umh / subme=11 / psy=1 / fade_compensate=0.00 / psy_rd=1.15:0.00 / mixed_ref=1 / me_range=48 / chroma_me=1 / trellis=2 / 8x8dct=1 / cqm=0 / deadzone=21,11 / fast_pskip=0 / chroma_qp_offset=-2 / threads=12 / lookahead_threads=2 / sliced_threads=0 / nr=0 / decimate=0 / interlaced=0 / bluray_compat=0 / constrained_intra=0 / bframes=8 / b_pyramid=2 / b_adapt=2 / b_bias=0 / direct=3 / weightb=1 / open_gop=0 / weightp=2 / keyint=240 / keyint_min=2 / scenecut=40 / intra_refresh=0 / rc_lookahead=0 / rc=2pass / mbtree=0 / bitrate=6600 / ratetol=1.0 / qcomp=0.70 / qpmin=0 / qpmax=69 / qpstep=4 / cplxblur=20.0 / qblur=0.5 / vbv_maxrate=50000 / vbv_bufsize=30000 / nal_hrd=none / filler=0 / ip_ratio=1.25 / pb_ratio=1.20 / aq=3:0.80
Language                                 : English
Default                                  : Yes
Forced                                   : No

Audio
ID                                       : 2
Format                                   : DTS
Format/Info                              : Digital Theater Systems
Format profile                           : ES Matrix / Core
Mode                                     : 16
Format settings, Endianness              : Big
Codec ID                                 : A_DTS
Duration                                 : 1h 45mn
Bit rate mode                            : Constant
Bit rate                                 : 1 509 Kbps
Channel(s)                               : 7 channels / 6 channels
Channel positions                        : Front: L C R, Side: L R, Back: C, LFE / Front: L C R, Side: L R, LFE
Sampling rate                            : 48.0 KHz
Frame rate                               : 93.750 fps (512 spf)
Bit depth                                : 24 bits
Compression mode                         : Lossy
Stream size                              : 1.11 GiB (19%)
Language                                 : English
Default                                  : Yes
Forced                                   : No

Text
ID                                       : 3
Format                                   : UTF-8
Codec ID                                 : S_TEXT/UTF8
Codec ID/Info                            : UTF-8 Plain Text
Language                                 : English
Default                                  : Yes
Forced                                   : No

Menu
00:00:00.000                             : en:00:00:00.000
00:03:43.473                             : en:00:03:43.473
00:06:41.651                             : en:00:06:41.651
00:09:55.845                             : en:00:09:55.845
00:13:28.182                             : en:00:13:28.182
00:17:06.025                             : en:00:17:06.025
00:21:07.933                             : en:00:21:07.933
00:26:02.311                             : en:00:26:02.311
00:30:07.514                             : en:00:30:07.514
00:33:56.743                             : en:00:33:56.743
00:37:43.761                             : en:00:37:43.761
00:40:59.457                             : en:00:40:59.457
00:45:35.149                             : en:00:45:35.149
00:49:00.312                             : en:00:49:00.312
00:52:35.152                             : en:00:52:35.152
00:55:59.189                             : en:00:55:59.189
01:00:50.230                             : en:01:00:50.230
01:04:33.244                             : en:01:04:33.244
01:08:47.665                             : en:01:08:47.665
01:12:04.654                             : en:01:12:04.654
01:15:58.554                             : en:01:15:58.554
01:19:31.809                             : en:01:19:31.809
01:22:46.545                             : en:01:22:46.545
01:25:43.972                             : en:01:25:43.972
01:29:02.295                             : en:01:29:02.295
01:31:44.874                             : en:01:31:44.874
01:34:18.528                             : en:01:34:18.528
01:37:32.680                             : en:01:37:32.680





1 个附件 售价 大小 下载 时间

Keeping.Up.with.the.Joneses.2016.720p.BluRay.x264.DTS-HDC[btbtt.co].torrent 0 金币 60.33K 2609 次 2月前

#1楼
发帖时间:2017-01-06 10:27:39   |   回复数:3
911degrees
一代宗师
非常感谢,谢谢分享
2月前 #2楼
liyouchai
超凡入圣№
谢谢楼主分享资源
2月前 #3楼
blue23
超凡入圣№
感谢楼主分享
2月前 #4楼
游客组