aoloffline
版主

[更 早] [香港] [剧情] [BD-1080P] 重庆森林 Chungking.Express.1994.CHINESE.1080p.BluRay.x264.DTS-FGT 13.31GB

-->

Chungking.Express.1994.CHINESE.1080p.BluRay.x264.DTS-FGT

◎译  名 重庆森林

◎片  名 重慶森林

◎年  代 1994

◎国  家 香港

◎类  别 剧情/爱情

◎语  言 粤语/汉语普通话/英语/印地语/日语

◎上映日期 1994-07-14

◎IMDb评分  8.1/10 from 35,723 users

◎IMDb链接  http://www.imdb.com/title/tt0109424/

◎豆瓣评分 8.6/10 from 221,844 users

◎豆瓣链接 http://movie.douban.com/subject/1291999/

◎片  长 98 分钟(香港)/102 分钟(国际版)

◎导  演 王家卫 Kar Wai Wong

◎主  演 林青霞 Brigitte Lin

      金城武 Takeshi Kaneshiro

      梁朝伟 Tony Leung Chiu Wai

      王菲 Faye Wong

      周嘉玲 Valerie Chow


◎简  介


  编号为223的警察(金城武)失恋后患上失恋综合症,在与金发女杀手(林青霞)擦肩而过又离奇相遇并有了一晚温情后,原本以为包括“爱情”在内的所有东西都有保质期的他意外地迎来心灵的短暂温暖。可是,他们的爱情还是结束了。

  快餐店新来的女招待阿菲(王菲)爱上了时常光顾快餐店的编号为633的警察(梁朝伟),因拆了他的女友(周嘉玲)留在快餐店给他的“分手” 信,阿菲知晓了他的心情,偷拿到他的钥匙趁他不在时常潜入他家,一边梦游一边悄悄地改变他的生活,终在被他撞见时令其感受到情感的回归。然而,这才是他们爱情的开始。


◎获奖情况


  第14届香港电影金像奖 (1995)

  最佳电影

  最佳导演 王家卫

  最佳编剧(提名) 王家卫

  最佳男主角 梁朝伟

  最佳女主角(提名) 王菲

  最佳女配角(提名) 周嘉玲

  最佳摄影(提名) 刘伟强 / 杜可风

  最佳剪接 郑伟明 / 邝志良 / 奚杰伟

  最佳美术指导(提名) 张叔平

  最佳原创电影音乐(提名) Roel A. García / 陈勋奇


Video
ID                                       : 1
Format                                   : AVC
Format/Info                              : Advanced Video Codec
Format profile                           : High@L4.1
Format settings, CABAC                   : Yes
Format settings, ReFrames                : 4 frames
Codec ID                                 : V_MPEG4/ISO/AVC
Duration                                 : 1h 42mn
Bit rate                                 : 17.0 Mbps
Width                                    : 1 800 pixels
Height                                   : 1 080 pixels
Display aspect ratio                     : 5:3
Frame rate mode                          : Constant
Frame rate                               : 23.976 fps
Color space                              : YUV
Chroma subsampling                       : 4:2:0
Bit depth                                : 8 bits
Scan type                                : Progressive
Bits/(Pixel*Frame)                       : 0.365
Stream size                              : 12.0 GiB (90%)
Writing library                          : x264 core 98 r1629 2e81ce1
Encoding settings                        : cabac=1 / ref=4 / deblock=1:-3:-3 / analyse=0x3:0x133 / me=esa / subme=10 / psy=1 / psy_rd=0.80:0.00 / mixed_ref=1 / me_range=48 / chroma_me=1 / trellis=2 / 8x8dct=1 / cqm=0 / deadzone=21,11 / fast_pskip=0 / chroma_qp_offset=-2 / threads=12 / sliced_threads=0 / nr=0 / decimate=0 / interlaced=0 / constrained_intra=0 / bframes=6 / b_pyramid=2 / b_adapt=2 / b_bias=0 / direct=3 / weightb=1 / weightp=2 / keyint=250 / keyint_min=25 / scenecut=40 / intra_refresh=0 / rc_lookahead=40 / rc=2pass / mbtree=1 / bitrate=17000 / ratetol=1.0 / qcomp=0.60 / qpmin=10 / qpmax=51 / qpstep=4 / cplxblur=20.0 / qblur=0.5 / ip_ratio=1.40 / aq=1:0.80
Language                                 : Chinese
Default                                  : Yes
Forced                                   : No

Audio
ID                                       : 2
Format                                   : DTS
Format/Info                              : Digital Theater Systems
Mode                                     : 16
Format settings, Endianness              : Big
Codec ID                                 : A_DTS
Duration                                 : 1h 42mn
Bit rate mode                            : Constant
Bit rate                                 : 1 509 Kbps
Channel(s)                               : 6 channels
Channel positions                        : Front: L C R, Side: L R, LFE
Sampling rate                            : 48.0 KHz
Bit depth                                : 24 bits
Compression mode                         : Lossy
Stream size                              : 1.08 GiB (8%)
Language                                 : Chinese
Default                                  : Yes
Forced                                   : No

Text
ID                                       : 3
Format                                   : UTF-8
Codec ID                                 : S_TEXT/UTF8
Codec ID/Info                            : UTF-8 Plain Text
Language                                 : English
Default                                  : Yes
Forced                                   : Yes





1 个附件 售价 大小 下载 时间

Chungking.Express.1994.CHINESE.1080p.BluRay.x264.DTS-FGT.torrent 0 金币 67.24K 7088 次 2015-6-15

#1楼
发帖时间:2015-06-15 21:47:24   |   回复数:4
liyouchai
超凡入圣№
谢谢楼主分享资源
2015-6-15 #2楼
blue23
超凡入圣№
感谢楼主分享
2015-6-16 #3楼
weakmeup
武林高手
谢谢分享楼主辛苦了
2016-1-18 #4楼
zhao_paul
一代宗师
多谢楼主分享经典好影片,辛苦了!
4月前 #5楼
游客组