aoloffline
版主

[2012] [欧美] [历史] [BD-1080P] 皇室风流史/皇家风流史 A.Royal.Affair.2012.DANISH.1080p.BluRay.x264.DTS-FGT 12.46GB

-->

A.Royal.Affair.2012.DANISH.1080p.BluRay.x264.DTS-FGT

◎译  名 皇室风流史/皇家风流史(港/台)/御医

◎片  名 En kongelig affære

◎年  代 2012

◎国  家 丹麦

◎类  别 剧情/历史/爱情

◎语  言 丹麦语/英语/德语

◎上映日期 2012-03-29(丹麦)

◎IMDb评分  7.6/10 from 26,376 users

◎IMDb链接  http://www.imdb.com/title/tt1276419/

◎豆瓣评分 6.8/10 from 7,151 users

◎豆瓣链接 http://movie.douban.com/subject/3179741/

◎片  长 137分钟

◎导  演 尼古拉哈·阿瑟 Nikolaj Arcel

◎主  演 艾丽西卡·维坎德 Alicia Vikander

      麦德斯·米科尔森 Mads Mikkelsen

      米克尔·福尔斯加德 Mikkel Følsgaard

      崔娜·蒂虹 Trine Dyrholm

      大卫·丹席克 David Dencik

      Thomas W. Gabrielsson

      Cyron Melville

      威廉·约翰·奈尔森 William Jøhnk Nielsen


◎简  介


  本片根据丹麦历史上最传奇的宫廷爱情故事改编而来。

  本片荣获第62届柏林电影节最佳剧本奖、最佳男主角奖。

  医师乔安纳·费德里克·斯特恩斯(麦德斯·米科尔森 Mads Mikkelsen 饰)被丹麦国王克里斯蒂安七世(米克尔·福尔斯加德 Mikkel Følsgaard 饰)相中,叫来陪伴他一同游历欧洲。作为国王的私人医生,斯特恩斯完全左右了精神并不稳定的国王,获得了他的信任,并赢得了王后卡罗琳·马蒂尔德(艾丽西卡·维坎德 Alicia Vikander 饰)的好感。王后很快爱上了这个帅气的医生。他们的恋情甚至一度成为了“国家事件”。在王后支持下斯特恩斯成为事实上的摄政,而他的改革也激起了贵族的仇视。他试图发动政变,最后却被以“滥用职权”和“侵犯国王尊严”的罪名处死。


◎获奖情况


  第85届奥斯卡金像奖 (2013)

  最佳外语片(提名)


  第70届金球奖 (2013)

  电影类 最佳外语片(提名)


  第25届欧洲电影奖 (2012)

  最佳配乐(提名) Cyrille Aufort / 盖布瑞·雅德

  最佳美术设计(提名) Niels Sejer


  第18届评论家选择电影奖 (2013)

  最佳外语片(提名)


  第17届金卫星奖 (2012)

  电影部门 最佳外语片(提名)

  电影部门 最佳服装设计 Manon Rasmussen

  电影部门 最佳美术指导(提名) Niels Sejer


  第11届华盛顿影评人协会奖 (2012)

  最佳外语片(提名)


  第12届凤凰城影评人协会奖 (2012)

  最佳服装设计(提名) Manon Rasmussen

  最佳外语片(提名)


Video
ID                                       : 1
Format                                   : AVC
Format/Info                              : Advanced Video Codec
Format profile                           : High@L4.1
Format settings, CABAC                   : Yes
Format settings, ReFrames                : 5 frames
Codec ID                                 : V_MPEG4/ISO/AVC
Duration                                 : 2h 12mn
Bit rate                                 : 12.0 Mbps
Width                                    : 1 920 pixels
Height                                   : 816 pixels
Display aspect ratio                     : 2.35:1
Frame rate mode                          : Constant
Frame rate                               : 25.000 fps
Color space                              : YUV
Chroma subsampling                       : 4:2:0
Bit depth                                : 8 bits
Scan type                                : Progressive
Bits/(Pixel*Frame)                       : 0.306
Stream size                              : 10.8 GiB (87%)
Writing library                          : x264 core 129 r2230 1cffe9f
Encoding settings                        : cabac=1 / ref=5 / deblock=1:-3:-3 / analyse=0x3:0x113 / me=tesa / subme=11 / psy=1 / psy_rd=1.00:0.02 / mixed_ref=1 / me_range=32 / chroma_me=1 / trellis=2 / 8x8dct=1 / cqm=0 / deadzone=21,11 / fast_pskip=0 / chroma_qp_offset=-3 / threads=16 / lookahead_threads=2 / sliced_threads=0 / nr=0 / decimate=0 / interlaced=0 / bluray_compat=0 / constrained_intra=0 / bframes=7 / b_pyramid=2 / b_adapt=2 / b_bias=0 / direct=3 / weightb=1 / open_gop=0 / weightp=2 / keyint=250 / keyint_min=25 / scenecut=40 / intra_refresh=0 / rc_lookahead=40 / rc=2pass / mbtree=0 / bitrate=12000 / ratetol=1.0 / qcomp=0.60 / qpmin=0 / qpmax=69 / qpstep=4 / cplxblur=20.0 / qblur=0.5 / vbv_maxrate=50000 / vbv_bufsize=62500 / nal_hrd=none / ip_ratio=1.40 / pb_ratio=1.30 / aq=2:1.00
Language                                 : Danish
Default                                  : Yes
Forced                                   : No
Color range                              : Limited
Color primaries                          : BT.709
Transfer characteristics                 : BT.709
Matrix coefficients                      : BT.709

Audio
ID                                       : 2
Format                                   : DTS
Format/Info                              : Digital Theater Systems
Mode                                     : 16
Format settings, Endianness              : Big
Codec ID                                 : A_DTS
Duration                                 : 2h 12mn
Bit rate mode                            : Constant
Bit rate                                 : 1 509 Kbps
Channel(s)                               : 6 channels
Channel positions                        : Front: L C R, Side: L R, LFE
Sampling rate                            : 48.0 KHz
Bit depth                                : 24 bits
Compression mode                         : Lossy
Stream size                              : 1.39 GiB (11%)
Language                                 : Danish
Default                                  : Yes
Forced                                   : No

Text #1
ID                                       : 3
Format                                   : UTF-8
Codec ID                                 : S_TEXT/UTF8
Codec ID/Info                            : UTF-8 Plain Text
Language                                 : English
Default                                  : Yes
Forced                                   : No

Text #2
ID                                       : 4
Format                                   : UTF-8
Codec ID                                 : S_TEXT/UTF8
Codec ID/Info                            : UTF-8 Plain Text
Language                                 : Danish
Default                                  : No
Forced                                   : No

Text #3
ID                                       : 5
Format                                   : UTF-8
Codec ID                                 : S_TEXT/UTF8
Codec ID/Info                            : UTF-8 Plain Text
Language                                 : Bulgarian
Default                                  : No
Forced                                   : No

Text #4
ID                                       : 6
Format                                   : UTF-8
Codec ID                                 : S_TEXT/UTF8
Codec ID/Info                            : UTF-8 Plain Text
Language                                 : Finnish
Default                                  : No
Forced                                   : No

Text #5
ID                                       : 7
Format                                   : UTF-8
Codec ID                                 : S_TEXT/UTF8
Codec ID/Info                            : UTF-8 Plain Text
Language                                 : Italian
Default                                  : No
Forced                                   : No

Text #6
ID                                       : 8
Format                                   : UTF-8
Codec ID                                 : S_TEXT/UTF8
Codec ID/Info                            : UTF-8 Plain Text
Language                                 : Norwegian
Default                                  : No
Forced                                   : No

Text #7
ID                                       : 9
Format                                   : UTF-8
Codec ID                                 : S_TEXT/UTF8
Codec ID/Info                            : UTF-8 Plain Text
Language                                 : Polish
Default                                  : No
Forced                                   : No

Text #8
ID                                       : 10
Format                                   : UTF-8
Codec ID                                 : S_TEXT/UTF8
Codec ID/Info                            : UTF-8 Plain Text
Language                                 : Spanish
Default                                  : No
Forced                                   : No

Menu
00:00:00.000                             : :Chapter 01
00:12:47.000                             : :Chapter 02
00:18:04.120                             : :Chapter 03
00:39:58.639                             : :Chapter 04
00:47:42.480                             : :Chapter 05
00:58:54.519                             : :Chapter 06
01:11:02.160                             : :Chapter 07
01:22:40.760                             : :Chapter 08
01:32:01.199                             : :Chapter 09
01:40:20.239                             : :Chapter 10
01:53:58.480                             : :Chapter 11
02:08:35.800                             : :Chapter 12





1 个附件 售价 大小 下载 时间

A.Royal.Affair.2012.DANISH.1080p.BluRay.x264.DTS-FGT.torrent 0 金币 62.94K 2080 次 2015-5-27

#1楼
发帖时间:2015-05-27 15:44:08   |   回复数:3
木星
武林高手
谢谢楼主分享
2015-5-27 #2楼
liyouchai
超凡入圣№
谢谢楼主分享资源
2015-5-27 #3楼
blue23
隐世仙人♂
感谢楼主分享
2015-5-29 #4楼
游客组