蟋有DE蟀
武林高手

[人间喜剧(国粤)]2010.BluRay.720p.x264.AC3-CNSCG[中文字幕/2.5G]

-->


◎片  名 人间喜剧
◎英 文 名 La Comedie humaine
◎上映日期 2010年7月8日
◎国  家 香港
◎类  别 喜剧  
◎语  言 粤语 / 国语
◎导  演 陈庆嘉
◎主  演 杜汶泽 / 薛 凯琪 / 王祖蓝 / 李力持 / 许绍雄 / 徐天佑

内容提要:

故事简介:
杀手司徒春运(杜汶泽 饰演)及失意编剧诸葛头揪(王祖蓝 饰演)一个冷酷,一个婆妈,各不相干的两个人,一天相遇,头揪误当春运是生死之交,却不知春运因需要紧守杀手守则 ─ 杀手不可以有朋友而起了杀心。头揪的思觉失调女友天爱出现,对头揪不停施以爱的虐待,令春运终于对头揪起了怜悯之心。

E:\压制MKV专用文件夹\人间喜剧(国粤)£圣城打佛\bbs.cnscg.com 人间喜剧(国粤).mkv
   General
      Complete name : E:\压制MKV专用文件夹\人间喜剧(国粤)£圣城打佛\bbs.cnscg.com 人间喜剧(国粤).mkv
      Format : Matroska
      File size : 2.50 GiB
      Duration : 1h 44mn
      Overall bit rate : 3 419 Kbps
      Encoded date : UTC 2010-09-11 05:02:17
      Writing application : mkvmerge v3.0.0 ('Hang up your Hang-Ups') 编译于 Dec 12 2009 15:20:35
      Writing library : libebml v0.7.9 + libmatroska v0.8.1
   Video #1
      ID : 1
      Format : AVC
      Format/Info : Advanced Video Codec
      Format profile : [email=High@L4.1]High@L4.1[/email]
      Format settings, CABAC : Yes
      Format settings, ReFrames : 4 frames
      Muxing mode : Container [email=profile=Unknown@4.1]profile=Unknown@4.1[/email]
      Codec ID : V_MPEG4/ISO/AVC
      Duration : 1h 44mn
      Bit rate : 2 455 Kbps
      Nominal bit rate : 2 524 Kbps
      Width : 1 280 pixels
      Height : 692 pixels
      Display aspect ratio : 1.850
      Frame rate : 24.000 fps
      Resolution : 8 bits
      Colorimetry : 4:2:0
      Scan type : Progressive
      Bits/(Pixel*Frame) : 0.115
      Stream size : 1.79 GiB (72%)
      Writing library : x264 core 98 r1649 20cbe10
      Encoding settings : cabac=1 / ref=5 / deblock=1:-3:-2 / analyse=0x3:0x113 / me=umh / subme=9 / psy=1 / psy_rd=1.00:0.10 / mixed_ref=1 / me_range=32 / chroma_me=1 / trellis=2 / 8x8dct=1 / cqm=0 / deadznoe=21,11 / fast_pskip=0 / chroma_qp_offset=-2 / threads=6 / sliced_threads=0 / nr=0 / decimate=0 / interlaced=0 / cnostrained_intra=0 / bframes=3 / b_pyramid=1 / b_adapt=2 / b_bias=0 / direct=1 / weightb=1 / weightp=2 / keyint=250 / keyint_min=25 / scenecut=40 / intra_refresh=0 / rc_lookahead=40 / rc=2pass / mbtree=1 / bitrate=2524 / ratetol=1.0 / qcomp=0.60 / qpmin=10 / qpmax=51 / qpstep=4 / cplxblur=20.0 / qblur=0.5 / ip_ratio=1.40 / aq=1:1.00
      Language : English
   Audio #2
      ID : 2
      Format : AC-3
      Format/Info : Audio Coding 3
      Codec ID : A_AC3
      Duration : 1h 44mn
      Bit rate mode : Constant
      Bit rate : 448 Kbps
      Channel(s) : 6 channels
      Channel positions : Front: L C R, Surround: L R, LFE
      Sampling rate : 48.0 KHz
      Stream size : 335 MiB (13%)
      Title : 粤语
   Audio #3
      ID : 3
      Format : AC-3
      Format/Info : Audio Coding 3
      Codec ID : A_AC3
      Duration : 1h 44mn
      Bit rate mode : Constant
      Bit rate : 448 Kbps
      Channel(s) : 6 channels
      Channel positions : Front: L C R, Surround: L R, LFE
      Sampling rate : 48.0 KHz
      Stream size : 335 MiB (13%)
      Title : 国语
   Text #4
      ID : 4
      Format : UTF-8
      Codec ID : S_TEXT/UTF8
      Codec ID/Info : UTF-8 Plain Text
      Title : 中文



#1楼
发帖时间:2010-09-11 19:14:24   |   回复数:1
549876511
小有名气
阿斯顿发的收购韩国警方
2013-1-30 #2楼
游客组