蟋有DE蟀
武林高手

[唐伯虎点秋香2(国粤)]2010.BluRay.720p.x264.AC3-CnSCG

-->


※※※※※※※ 影片信息 ※※※※※※※

【影片原名】Tang Bo Hu Dian Qiu Xiang 2
【中文译名】唐伯虎点秋香2/唐伯虎点秋香之四大才子各显神通/唐伯虎点秋香2之四大才子
【出品公司】北京二十一世纪威克影业投资有限公司 [中国]
【出品年代】2010 年
【上映日期】2010年7月9日  中国  
【官方网站】http://tbh2.ent.sina.com.cn/
【国  家】中国
【字     幕】中文字幕
【文件格式】X264 + AC3
【SP尺寸】1280 x 720
【文件大小】2.48G
【MD5 值】 625DDB7C100556A26EB5ABF4BBCB546E
【片  长】101mins
【类  别】喜剧/古装
【导  演】李力持 Lik-Chi Lee
【主  演】黄晓明 Xiaoming Huang
      张静初 Jingchu Zhang
      任贤齐 Richie Ren
      陈百祥 Pak-cheung Chan
      周立波 Libo Zhou
      巩新亮 Miumiu
      戴筱轶 yuka
      朱咪咪 Mimi Zhu
      苑琼丹 King-Tan Yuen
      樊少皇 Siu-Wong Fan
      罗家英 Kar-Ying Law
      黄一飞 Yut Fei Wong
      八两金 Bobby Yip
      李健仁 Kin-Yan Lee
      高亚麟 Yalin Gao

※※※※※※※ 资料信息 ※※※※※※※

【内容简介】

  唐伯虎自少就练得一身好欺武功,且爱抱打不平,常惹事上身。终于在一次打架事见中,气死了父亲,结果被母亲软禁,不准使用武功!

  而常与伯虎为伍的祝枝山、文征明、徐昌谷等四人,却被坊众戏称为四大坏友。

  一日祝枝山再次欠下赌债,想请唐伯虎帮忙,唐伯虎在救祝枝山期间,被迫再次使出武功将债主们打退。这次又被唐母撞个正着,决定将他送进了清风寺书斋潜心苦学。

  书斋内,仁当主持管教甚严,让唐伯虎感觉生活如在监牢之中。幸好三个好友突然出现,带唐伯虎到清风寺外的庙会玩耍。一个蒙面的杂技人吸引了唐伯虎的注意。原来蒙面人竟然是个美丽女子,但对唐伯虎不予理睬,让唐伯虎惆怅万分。

  一日,四人发现祝枝山竟然欺骗徐昌谷的银两,三人决定一起戏弄祝枝山一番。

  他们假称徐昌谷发明的隐形丹,吃后顿时无影无踪,能做平时想做却又不敢做的事。祝枝山信以为真,偷吃此丹,吃后竟脱光了衣服跑去偷看女士们洗澡,闹出不少笑话。仁当和尚更是将他暴打一顿。

  稍後,四人共赴灯会。唐伯虎在灯会上再次碰见让他朝思暮想的女子。原来这个女子是灯谜活动的主角,只要有人猜对了灯会的灯谜,就可与女子把酒当歌,共处一晚。唐伯虎本想参与,谁知女子却将机会留给出价最高的大财主,这让唐伯虎非常失落。

  几天后散播着一个可怕的消息。最近很多女孩都神秘的失踪,可能跟妖魔有关。唐伯虎也始担心哪女子的安危。突然该女子悄然来到了唐伯虎的身边。

  女子名叫倩倩。专程来找唐伯虎教她写字。两人在字里行间情窦初开。当唐伯虎还想与倩倩在一起时,倩倩却与他告别了,转身离开。

  文征明爬进清风寺准备给唐伯虎送夜宵,却失足跌进仁当主持的卧房,仁当主持将他一脚踹进了门外不远处的垃圾箱内。竟将文征明跌进了一个密室。原来清风寺的僧人都是假的,真的僧人都被囚禁在密室里添柴烧火为赐福池的温泉加热。文征明知道这个秘密后,让僧人用大力金刚腿将他踢出密室。

  倩倩离开唐伯虎后她的身份也发生了巨大的转变。原来倩倩是无量及仁当的属下,是帮助无量迷惑财主抢夺钱财的女贼。而无量也告诫手下,谁敢出卖他谁就会不得好死。

  几天后,唐伯虎的斋房内突然闯进了一群官差。认为他跟周边的女孩失踪案有关要抓他回去审问。监牢内,文征明与唐母前来探望唐伯虎,并道出了清风寺的真实面目。唐母与唐伯虎当下决定拿出当年唐父留下的锦囊以此化解此事。

  无量、仁当等人决定携带赃款和被绑的少女出走。而唐伯虎也在唐父留下的锦囊中获得了最让他振奋的妙语:"忍无可忍无须再忍!"唐伯虎重拾信心,在囚犯水上漂的帮助下,逃出大牢,找仁当等人决战。一场大战在清风寺激烈展开。

  清风寺内,正义与邪恶的较量打得昏天暗地。倩倩被无量迫喝的毒酒已经毒性攻身。无量借机逃走。唐伯虎与倩倩两人追到悬崖边。无量拿出两瓶药水,说只有一瓶是真的解药,如果想要救倩倩,就必须自己来拿。为了倩倩的生死,唐伯虎毅然地向无量走去。就当唐伯虎就要走到无量跟前之时,倩倩不舍唐伯虎被暗害,大喊一声向无量扑了过去,无量被倩倩推倒,两人一同坠下了悬崖。唐伯虎跑到悬崖边时倩倩已经离他远去,唐伯虎泣不成声。

  没有了倩倩的岁月让唐伯虎倍感孤独,他决定奋发向上,专心读书,以此祭慰倩倩的在天之灵。一年后的唐伯虎已经学有所成,一日,他漫步桥边,忽见倩倩的身影,忙拦住相认。但倩倩全然不知唐伯虎是谁,继续前行。唐伯虎连忙询问与倩倩同行的石榴姐到底发生何事。原来,倩倩摔下悬崖后被华夫人所救,并取名'秋香'。虽然眼前的倩倩已经忘掉了过去,但唐伯虎却看到了一个全新的未来。他满心欢喜的向秋香追去……

幕后制作

四大才子皆有看点

黄晓经明:负责"唐伯虎",不再负责"2"

  黄晓朱明在《唐伯虎点秋香2》中饰演了唐伯虎一角,他坦言接这个角色是非常有压力的,因为上一个唐伯虎是周星驰,既然无法超越,黄晓明就只能另辟蹊径,将自己的优点发挥到极致,"因为这部电影是唐伯虎的前传,所以片中的唐伯虎要比原版的更加年轻,"考虑到这一点,黄晓明将年轻版的唐伯虎塑造成了一个更加可爱更加活泼的"邻家男孩"的感觉。据片方介绍,他在片中将大展自己标识性的可爱表情,届时一定会引来大批女粉丝的尖叫,"在这部《唐伯虎点秋香2》中,黄晓明将不再负责'2',而是要真正承担起'唐伯虎'这一重要角色。"

周立波:脱下了西装,穿起了戏服

  西装革履和光可鉴人的小背头,时而上海话时而普通话的调侃,这些早已成为了周立波的经典形象,很多观众都无法想象周立波褪去西服之后会是什么样的状态。在《唐伯虎点秋香2》中他将第一次展现自己的古装戏服形象,"只有戏服还不算,他还要被暴打、流鼻血,出尽洋相。"导演李力持介绍,虽然周立波从未出演过电影,但是他的表现却丝毫不比其他几位才子差,而且除了观众熟知的演技和搞笑的本事之外,他竟然还会会功夫。"他在片中有大量的动作戏,所有的动作戏都是由他亲自完成的,具体是些什么样的动作,还要请观众到影院去一看究竟了。"

任贤齐:爱因斯坦和好男人的合体

  剧组在影片开拍不久就曝出了任贤齐的爱因斯坦造型。据片方工作人员透露,本来不打算将这一造型曝光的,"但是这个造型太有喜感了,我们都忍不住想让观众提前看到。"据悉,任贤齐在《唐伯虎点秋香2》中饰演徐昌谷一角,任贤齐戏称:"其实在历史上徐昌谷的才华不比唐伯虎差,只是因为他不够风流。"在片中这位酷似爱因斯坦的才子也是潜心于研究,发明出了很多意想不到的新奇玩意儿,而他对这个角色"不够风流"的定位也正好与自己经常饰演的绝种好男人角色相符合,"不同的是别的电影里我都得到爱情了,在《唐伯虎点秋香2》里,我始终无人问津。"

陈百祥:变的是身材,不变的是勇气

  陈百祥在原版《唐伯虎点秋香》中就是四大才子之一,17年过去了,他成了四位中唯一保留下来的角色,所以他的出演也被看做是续集对原版的一种最好的延续方式。与其他三位才子比起来,他是年纪最大的一位,但是从他的表演中却无法看到这一差距。一知名网站曾对《唐伯虎点秋香》印象最深刻桥段开展过一次评选,结果陈百祥的裸戏仅次于周星驰说唱的一段,名列第二,《唐伯虎点秋香2》中,他的勇猛一点都不减当年,在零下十度左右的天气里再一次全裸上阵,而且要比17年前更加"劲爆"。对此他戏称:"虽然身材不比当年,但我勇气依然可嘉!"

林迪安精心设计片末打戏

     "整部戏中,最后一场最为精彩,也是武打动作最多的一场。"《唐伯虎点秋香2》的动作指导林迪安这样评价。在影片中四大才子各亮武器,唐伯虎的金刚笔、文征明的双节棍扇、徐昌谷的变形金刚,还有祝枝山的"luo体"各显神通,为了充分表现四大才子的功夫和武器特性,动作指导林迪安精心设计了各种动作场面。如陈百祥的连环八腿就独具匠心,不仅让人见识到他的"真功夫",而且笑料不断,任贤齐扮演的"发明家"徐昌谷则更是别有匠心,他发明的变形金刚可以打人于无形,让自己时刻处于隐蔽状态。

     此外,为了让这场动作戏尽善尽美,唐伯虎与秋香这对才子佳人的动作戏可谓让林迪安费劲了脑筋。针对黄晓明与张静初都非打戏出身,面对剧中大反派樊少皇这一香港影坛屈指可数的动作巨星时会有很多动作无法配合起来以至于看上去拍的很假,所以林迪安专门为他们用图画解析了每一个武术动作,并且亲身为他们示范。影片最后一场打戏耗时一月才拍摄完成。导演李力持对这场戏极为满意,称"最后一场是点睛之笔,堪称完美,推迟一个月杀青这钱花的值了。"

各主演对影片删减表示不满

  对于影片删减搞笑戏份,几位主演叫苦连连,已经看过成片的黄晓明称,"他们在往感情方面推,很多喜剧的都被剪掉了,我很难过。"张静初也表示,"我配音的时候发现很多好笑的部分都不见了,觉得很可惜。想象中很好看,现在不敢看。"

  一开始黄晓明还很"官方"地说,可能是每个人的口味不一样,但后来还是忍不住说与自己的预期不符,因为他表演迈克尔·杰克逊的舞蹈、还有他自己设计的从楼梯上滚下来抠鼻屎、称呼张静初"小青蛙"、像灰太狼一样向张静初表白说"倩倩,你愿意接受我这只打不还手,骂不还口,努力工作,老婆第一的小田鸡吗?"等搞笑场面都没有了,还有一场特意等了三四天的下雪戏也消失不见。

  "真的很可惜,可能导演希望我们是'梁祝'的感觉多一点。你现在看起来我在笑,可是我的心在滴血,用了这么多力,可是笑点出不来。你看导演都不出现,就怕我们打他。"黄晓明表示,看片之后他一直尝试联系导演:"我找不到导演,你没发现导演一场发布会都没出现吗?他们告诉我的答复是,很多胶片都曝光了。其实这就好像我拍了三个月的电影,但是只放了我一个月的努力。你觉得我能不生气吗?"他随后补充道,"只要这个戏好就行了,我个人的牺牲还是可以的。"

花絮

  ·歌舞场面是《唐2》的重点,为此出品方特邀北京ao-yun会的排舞老师编排舞蹈,并邀请几十位专业舞蹈演员参与演出。

  ·电影由于拍摄期间时值寒冬,在加上陈百祥这段戏还有室外取景,所以对60高龄的陈百祥是一个极大的考验,为了影片的喜剧效果,陈百祥否定了导演采用替身的提议,表示对自己的身体很有信心。

  ·在《唐伯虎点秋香2》中,有不少象周星驰版致敬的地方,其中祝枝山luo体作画的情节,四大才子搔首弄姿上街的段落,都很容易让观众联想到老版。

※※※※※※※ 参数信息 ※※※※※※※

E:\Lovebeans专用\已完成\唐伯虎点秋香2@圣城Lovebeans\圣城家园[bbs.cnscg.com]@唐伯虎点秋香2.mkv
   General
      Complete name : E:\Lovebeans专用\已完成\唐伯虎点秋香2@圣城Lovebeans\圣城家园[bbs.cnscg.com]@唐伯虎点秋香2.mkv
      Format : Matroska
      File size : 2.48 GiB
      Duration : 1h 41mn
      Overall bit rate : 3 479 Kbps
      Encoded date : UTC 2010-09-11 09:08:43
      Writing application : mkvmerge v2.9.7 ('Tenderness') built on Jul  1 2009 18:43:35
      Writing library : libebml v0.7.7 + libmatroska v0.8.1
   Video #1
      ID : 1
      Format : AVC
      Format/Info : Advanced Video Codec
      Format profile : [email=High@L4.1]High@L4.1[/email]
      Format settings, CABAC : Yes
      Format settings, ReFrames : 5 frames
      Muxing mode : Container [email=profile=Unknown@4.1]profile=Unknown@4.1[/email]
      Codec ID : V_MPEG4/ISO/AVC
      Duration : 1h 41mn
      Bit rate : 2 386 Kbps
      Nominal bit rate : 2 456 Kbps
      Width : 1 280 pixels
      Height : 720 pixels
      Display aspect ratio : 16:9
      Frame rate : 24.000 fps
      Resolution : 8 bits
      Colorimetry : 4:2:0
      Scan type : Progressive
      Bits/(Pixel*Frame) : 0.108
      Stream size : 1.70 GiB (69%)
      Title : [email=Lovebeans@CnSCG]Lovebeans@CnSCG[/email]
      Writing library : x264 core 98 r1649 c54c47d
      Encoding settings : cabac=1 / ref=5 / deblock=1:-3:-2 / analyse=0x3:0x133 / me=umh / subme=7 / psy=1 / psy_rd=1.00:0.10 / mixed_ref=1 / me_range=24 / chroma_me=1 / trellis=2 / 8x8dct=1 / cqm=0 / deadznoe=21,11 / fast_pskip=0 / chroma_qp_offset=-2 / threads=6 / sliced_threads=0 / nr=0 / decimate=0 / interlaced=0 / cnostrained_intra=0 / bframes=3 / b_pyramid=2 / b_adapt=2 / b_bias=4 / direct=1 / weightb=1 / weightp=2 / keyint=250 / keyint_min=25 / scenecut=40 / intra_refresh=0 / rc_lookahead=40 / rc=2pass / mbtree=1 / bitrate=2456 / ratetol=1.0 / qcomp=0.60 / qpmin=10 / qpmax=51 / qpstep=4 / cplxblur=20.0 / qblur=0.5 / ip_ratio=1.40 / aq=1:1.00
      Language : Chinese
   Audio #2
      ID : 2
      Format : AC-3
      Format/Info : Audio Coding 3
      Codec ID : A_AC3
      Duration : 1h 41mn
      Bit rate mode : Constant
      Bit rate : 384 Kbps
      Channel(s) : 2 channels
      Channel positions : L R
      Sampling rate : 48.0 KHz
      Stream size : 280 MiB (11%)
      Title : Mandarin
      Language : Chinese
   Audio #3
      ID : 3
      Format : AC-3
      Format/Info : Audio Coding 3
      Codec ID : A_AC3
      Duration : 1h 41mn
      Bit rate mode : Constant
      Bit rate : 640 Kbps
      Channel(s) : 6 channels
      Channel positions : Front: L C R, Surround: L R, LFE
      Sampling rate : 48.0 KHz
      Stream size : 467 MiB (18%)
      Title : Cantonese
      Language : Chinese
   Text #4
      ID : 4
      Format : SSA
      Codec ID : S_TEXT/SSA
      Codec ID/Info : Sub Station Alpha
      Title : Chinese Simplified
      Language : Chinese

※※※※※※※ 截图信息 ※※※※※※※

#1楼
发帖时间:2010-09-11 19:08:34   |   回复数:35
游客组