蟋有DE蟀
武林高手

[钢铁侠2]Iron.Man.2.2010.BluRay.720p.x264.AC3-CNSCG

-->
  
此片前天有个德版片源。德版和美版圆盘画质差多少我不知道。那个德版片源是个网上一不知名小组的重编码,参数低,码率低,他的重编码720P 3000K码率,1080P 6000K码率。我拖到14寸笔记本上都对其画质不够满意,直接无视此片源,用此垃圾片源是对会员的忽悠和不负责。今天中午终于等到美版高码率片源,下午开始压制,顺便用其内封ocr的英文SDH字幕和R3中文字幕合成双语字幕,R3字幕就是喜欢把一些嘈杂环境下的中文字幕无视,本人已经根据英文字幕补充完毕。字幕的时间轴和翻译的完整度已经非常不错了




◎译  名 钢铁侠2/钢铁人2(台)/铁甲奇侠2(港)
◎片  名 Iron Man 2
◎年  代 2010
◎国  家 美国
◎类  别 科幻/冒险/动作
◎语  言 英语/导评
◎字  幕 英/简/繁/英评
◎IMDB评分  7.4/10   55,449 votes
◎IMDB链接  http://www.imdb.com/title/tt1228705/
◎片  长 124:50
◎导  演 乔恩·费儒 Jon Favreau
◎主  演 小罗伯特·唐尼 Robert Downey Jr....Tony Stark / Iron Man
      格温妮丝·帕特洛 Gwyneth Paltrow...Pepper Potts
      米基·洛克 Mickey Rourke...Ivan Vanko / Whiplash
      斯嘉丽·约翰逊 Scarlett Johansson...Natasha Romanoff / Black Widow
      保罗·贝坦尼 Paul Bettany...Jarvis (voice)
      塞缪尔·杰克逊 Samuel L. Jackson...Nick Fury
      山姆·洛克威尔 Sam Rockwell...Justin Hammer
      唐·钱德尔 Don Cheadle...Col. James 'Rhodey' Rhodes / War Machine
      乔恩·费儒 Jon Favreau...Hogan
      莱丝莉·比伯 Leslie Bibb...Christine Everhart
      奥立薇娅·玛恩 Olivia Munn...Melina Vostokoff / Iron Maiden
      凯特·玛拉 Kate Mara...Bethany Cabe
      海伦娜·马特森 Helena Mattsson...Rebecca
      斯坦·李 Stan Lee...Larry King
      约翰·斯拉特里 John Slattery...Howard Stark
      克拉克·格雷格 Clark Gregg...Agent Phil Coulson
      蒂姆·金尼 Tim Guinee...Major Allen
      盖瑞·山德林 Garry Shandling...Senator Stern
◎简  介 
六个月前,年轻帅气的军火商托尼·斯塔克经历了人生最大的一次危机--不仅身体被改造,还被一直亲密无间的合作伙伴狠狠的摆了一道,幸亏凭借自己研制的全新战服才得以化解危机,史塔克在公众前的代号,除了花花公子、亿万富翁之外又多了一个,那就是:钢铁侠!和其他超级英雄不一样,史塔克不屑于隐藏自己的身份,爱出风头的他借着钢铁侠的身份在各地亮相,由此也引得了军方对他的注意,国会要求他交出钢铁侠的战服,而政府对其施加的压力也愈来愈大……幸好小辣椒秘书波兹(格温妮丝·帕特洛饰)一直陪在身边,令他在酗酒烂醉逃避现实的时候,得以慰藉。
  高调的史塔克,早已成为了各路恶人的眼中钉,其中特别有两人想要击倒钢铁侠,一位是来自俄罗斯的重犯伊凡(米基·洛克饰),他利用同样源自自身研制的光鞭在赛车场重创了史塔克;另一位则是美艳非凡的黑寡妇娜塔莎(斯嘉丽·约翰逊饰),她接近史塔克也有着自己的目的……在好朋友罗德上校(唐·钱德尔饰)的帮助、同时也是怂恿下,史塔克为其打造了代号“战争机器”的战服,两人开始并肩作战,对抗邪恶势力……
  
E:\压制MKV专用文件夹\钢铁侠2£圣城打佛\bbs.cnscg.com 钢铁侠2.mkv
   General
      Complete name : E:\压制MKV专用文件夹\钢铁侠2£圣城打佛\bbs.cnscg.com 钢铁侠2.mkv
      Format : Matroska
      File size : 2.80 GiB
      Duration : 2h 4mn
      Overall bit rate : 3 218 Kbps
      Encoded date : UTC 2010-09-08 14:22:36
      Writing application : mkvmerge v3.0.0 ('Hang up your Hang-Ups') 编译于 Dec 12 2009 15:20:35
      Writing library : libebml v0.7.9 + libmatroska v0.8.1
      Cover : Yes
   Video #1
      ID : 1
      Format : AVC
      Format/Info : Advanced Video Codec
      Format profile : [email=High@L4.1]High@L4.1[/email]
      Format settings, CABAC : Yes
      Format settings, ReFrames : 4 frames
      Muxing mode : Container [email=profile=Unknown@4.1]profile=Unknown@4.1[/email]
      Codec ID : V_MPEG4/ISO/AVC
      Duration : 2h 4mn
      Bit rate : 2 514 Kbps
      Nominal bit rate : 2 572 Kbps
      Width : 1 280 pixels
      Height : 720 pixels
      Display aspect ratio : 16:9
      Frame rate : 23.976 fps
      Resolution : 8 bits
      Colorimetry : 4:2:0
      Scan type : Progressive
      Bits/(Pixel*Frame) : 0.114
      Stream size : 2.19 GiB (78%)
      Writing library : x264 core 98 r1649 20cbe10
      Encoding settings : cabac=1 / ref=5 / deblock=1:-3:-2 / analyse=0x3:0x113 / me=umh / subme=9 / psy=1 / psy_rd=1.00:0.10 / mixed_ref=1 / me_range=32 / chroma_me=1 / trellis=2 / 8x8dct=1 / cqm=0 / deadznoe=21,11 / fast_pskip=0 / chroma_qp_offset=-2 / threads=6 / sliced_threads=0 / nr=0 / decimate=0 / interlaced=0 / cnostrained_intra=0 / bframes=3 / b_pyramid=1 / b_adapt=2 / b_bias=0 / direct=1 / weightb=1 / weightp=2 / keyint=250 / keyint_min=25 / scenecut=40 / intra_refresh=0 / rc_lookahead=40 / rc=2pass / mbtree=1 / bitrate=2572 / ratetol=1.0 / qcomp=0.60 / qpmin=10 / qpmax=51 / qpstep=4 / cplxblur=20.0 / qblur=0.5 / ip_ratio=1.40 / aq=1:1.00
      Language : English
   Audio #2
      ID : 2
      Format : AC-3
      Format/Info : Audio Coding 3
      Codec ID : A_AC3
      Duration : 2h 4mn
      Bit rate mode : Constant
      Bit rate : 640 Kbps
      Channel(s) : 6 channels
      Channel positions : Front: L C R, Surround: L R, LFE
      Sampling rate : 48.0 KHz
      Stream size : 571 MiB (20%)
      Title : English Dolby Digital 5.1 @ 640 Kbps
      Language : English
   Text #3
      ID : 3
      Format : SSA
      Codec ID : S_TEXT/SSA
      Codec ID/Info : Sub Station Alpha
      Title : 上中下英
   Text #4
      ID : 4
      Format : SSA
      Codec ID : S_TEXT/SSA
      Codec ID/Info : Sub Station Alpha
      Title : 上英下中
   Text #5
      ID : 5
      Format : UTF-8
      Codec ID : S_TEXT/UTF8
      Codec ID/Info : UTF-8 Plain Text
      Title : 中文
   Text #6
      ID : 6
      Format : UTF-8
      Codec ID : S_TEXT/UTF8
      Codec ID/Info : UTF-8 Plain Text
      Title : 英文




#1楼
发帖时间:2010-09-09 00:47:06   |   回复数:10
miller2002
小有名气
下来看看效果怎么样呀
2012-6-25 #2楼
(??)nnn
江湖小虾
看看咋样?不知道能不能下?
2012-8-29 #3楼
(??)nnn
江湖小虾
不行啊!没种子了!
2012-8-29 #4楼
「XˉIan
武林高手
看看咋样?不知道能不能
2013-4-14 #5楼
泰达FFX
武林高手
还能下载吗、
2013-4-25 #6楼
testiccm
江湖小虾
试试高清效果
2013-5-5 #7楼
junxingtc
武林高手
不错的片子,很经典,找了好久了,谢谢楼主的分享!!!
2013-5-7 #8楼
chaosnie
小有名气
马上就要出第三部了,赶紧找时间把第二部看了
2013-5-11 #9楼
clf2010315
小有名气
2013-6-10 #10楼
blue23
超凡入圣№
链接呢??
2014-9-20 #11楼
游客组